Video Recordings

000158

Kiss
December 31, 2020
Atlantis
The Palm Jumeirah, United Arab Emirates
Tradeable
1 Dual Layer Blu-ray Disc
Hubertcumberdale
Professional
38.80 Go
HD
HD PRO BROADCAST FROM PRIVATE STREAM
NTSC
16:9
3:12:36
EX
EX
EX



01. Pre-Show (Uncut)
02. Detroit Rock City
03. Shout It Out Loud
04. Deuce
05. Say Yeah
06. I Love It Loud
07. Heavens On Fire
08. Tears Are falling
09. War Machine
10. Lick It Up
11. Calling Dr Love
12. 100,000 Years
13. Cold Gin
14. God Of Thunder
15. Psycho Circus
16. Parasite
17. Love Gun
18. I Was Made For Lovin' You
19. Black Diamond
 
Encore:
 
20. Beth
21. Strutter (Unrehearsed & Added To Fill Time)
22. Do You Love Me
23. Rock And Roll All Nite


HD PRO BROADCAST FROM PRIVATE STREAM - NOT CRAPPY YOUTUBE VERSION!
Authored By Myself (Hubertcumberdale)
Captured By Myself (Hubertcumberdale)
(THIS BLU-RAY HAS 2 AUDIO TRACKS!)
  1. Original Live Stream Audio
  2. Hubertcumberdale Remastered Audio
(Remixed Through Pro Tools)
 
This Broadcast was caught in real time and was captured in TRUE 1080p uncompressed format
This is NOT YouTube Rip This is from my true 1080p Master File (Only a little Compression but not much compared to the file!
DO NOT MAKE A PROFIT FROM THIS!
Please respect this for what it is as I have worked hard to make something thats worth more than just the one watch!
I did this for US!
(With Help Through Donations - Thankyou to the Contributors)
If anyone wants the true 1080p uncompressed RAW capture please ask through PM and i will work something out with you.
Got lots to catch up with (But thats another story)
Hubertcumberdale 😃
 
 
General
ID : 1 (0x1)
Complete name : E:\BDMV\STREAM\00005.m2ts
Format : BDAV
Format/Info : Blu-ray Video
File size : 38.9 GiB
Duration : 3 h 12 min
Overall bit rate mode : Variable
Overall bit rate : 28.9 Mb/s
Maximum Overall bit rate : 34.2 Mb/s
Video
ID : 4113 (0x1011)
Menu ID : 1 (0x1)
Format : MPEG Video
Format version : Version 2
Format profile : Main@High
Format settings, BVOP : Yes
Format settings, Matrix : Custom
Format settings, GOP : Variable
Format settings, picture structure : Frame
Codec ID : 2
Duration : 3 h 12 min
Bit rate mode : Variable
Bit rate : 27.3 Mb/s
Maximum bit rate : 30.0 Mb/s
Width : 1 920 pixels
Height : 1 080 pixels
Display aspect ratio : 16:9
Frame rate : 29.970 (30000/1001) FPS
Standard : Component
Color space : YUV
Chroma subsampling : 4:2:0
Bit depth : 8 bits
Scan type : Interlaced
Scan order : Top Field First
Compression mode : Lossy
Bits/(Pixel*Frame) : 0.439
Time code of first frame : 00:00:00:00
Time code source : Group of pictures header
Stream size : 36.7 GiB (94%)
Writing library : TMPGEnc Authoring Works 4 Version. 4.0.12.42
Color primaries : BT.709
Transfer characteristics : BT.709
Matrix coefficients : BT.709
Audio #1
ID : 4352 (0x1100)
Menu ID : 1 (0x1)
Format : AC-3
Format/Info : Audio Coding 3
Format settings, Endianness : Big
Codec ID : 129
Duration : 3 h 12 min
Bit rate mode : Constant
Bit rate : 224 kb/s
Channel(s) : 2 channels
Channel positions : Front: L R
Sampling rate : 48.0 kHz
Frame rate : 31.250 FPS (1536 spf)
Bit depth : 16 bits
Compression mode : Lossy
Stream size : 309 MiB (1%)
Service kind : Complete Main


Cover Artwork
Hubertcumberdale
Yes
Yes
Hubertcumberdale
1
1


Screenshot Preview Screenshot Preview Screenshot Preview Screenshot Preview Screenshot Preview Screenshot Preview Screenshot Preview Screenshot Preview