Video Recordings

000240

Alice Cooper
June 29, 2022
Alcatraz Festival
Milan, Italy
Detroit Muscle Tour
Not For Trade
1 Blu-ray Disc
Maideniron
Audience
Master
PAL
16:9
1:21:31
A-
A+
A+



01. Intro
02. Feed My Frankenstein
03. No More Mr. Nice Guy
04. Bed of Nails
05. Hey Stoopid
06. Fallen in Love
07. Be My Lover
08. Go Man Go
09. Under My Wheels
10. He's Back
11. Go to Hell
12. I'm Eighteen
13. Poison
14. Billion Dollar Babies
15. Guitar Solo (Nita Strauss)
16. Roses on White Lace
17. My Stars
18. Devil's Food(band only)
19. Black Widow Jam
20. Steven
21. Dead Babies
22. I Love the Dead
23. Escape
24. Teenage Frankenstein


General
ID : 1 (0x1)
Complete name : C:\Authoring\Alice Cooper - 2022-06-29 - Alcatraz Festival, Milan, Italy (Maideniron Authoring & The Bootleggers) (BD)\BDMV\STREAM\00000.m2ts
Format : BDAV
Format/Info : Blu-ray Video
File size : 18.0 GiB
Duration : 1 h 21 min
Overall bit rate mode : Variable
Overall bit rate : 31.6 Mb/s
Maximum Overall bit rate : 31.2 Mb/s
Video
ID : 4113 (0x1011)
Menu ID : 1 (0x1)
Format : AVC
Format/Info : Advanced Video Codec
Format profile : High@L4.1
Format settings, CABAC : Yes
Format settings, ReFrames : 4 frames
Codec ID : 27
Duration : 1 h 21 min
Bit rate mode : Variable
Bit rate : 30.0 Mb/s
Width : 1 920 pixels
Height : 1 080 pixels
Display aspect ratio : 16:9
Frame rate : 25.000 FPS
Standard : Component
Color space : YUV
Chroma subsampling : 4:2:0
Bit depth : 8 bits
Scan type : Progressive
Bits/(Pixel*Frame) : 0.579
Stream size : 17.1 GiB (95%)
Writing library : x264 core 148
Encoding settings : cabac=1 / ref=4 / deblock=1:0:0 / analyse=0x3:0x113 / me=hex / subme=4 / psy=1 / psy_rd=1.00:0.00 / mixed_ref=0 / me_range=16 / chroma_me=1 / trellis=1 / 8x8dct=1 / cqm=1 / deadzone=21,11 / fast_pskip=1 / chroma_qp_offset=0 / threads=12 / lookahead_threads=3 / sliced_threads=0 / slices=4 / nr=0 / decimate=1 / interlaced=fake / minigop=1 / stitchable=1 / constrained_intra=0 / bframes=3 / b_pyramid=0 / b_adapt=1 / b_bias=0 / direct=1 / weightb=1 / open_gop=1 / weightp=1 / keyint=25 / keyint_min=1 / scenecut=40 / intra_refresh=0 / rc_lookahead=20 / rc=abr / mbtree=1 / bitrate=29999 / ratetol=1.0 / qcomp=0.60 / qpmin=1 / qpmax=51 / qpstep=4 / vbv_maxrate=30000 / vbv_bufsize=30000 / nal_hrd=vbr / filler=0 / ip_ratio=1.40 / aq=1:1.00
Color range : Limited
Color primaries : BT.709
Transfer characteristics : BT.709
Matrix coefficients : BT.709
Audio
ID : 4352 (0x1100)
Menu ID : 1 (0x1)
Format : AC-3
Format/Info : Audio Coding 3
Format settings, Endianness : Big
Codec ID : 129
Duration : 1 h 21 min
Bit rate mode : Constant
Bit rate : 224 kb/s
Channel(s) : 2 channels
Channel positions : Front: L R
Sampling rate : 48.0 kHz
Frame rate : 31.250 FPS (1536 spf)
Bit depth : 16 bits
Compression mode : Lossy
Stream size : 131 MiB (1%)
Service kind : Complete Main


Cover Artwork
The Bootleggers
Maideniron
Yes
Yes
1
1


Screenshot Preview Screenshot Preview Screenshot Preview Screenshot Preview Screenshot Preview Screenshot Preview Screenshot Preview Screenshot Preview Screenshot Preview Screenshot Preview Screenshot Preview Screenshot Preview